• Fabolous - Loso's Way 2009[CDR/320K] - [Muzik]

    2009-07-30

    版权声明:转载时请以超链接形式标明文章原始出处和作者信息及本声明
    http://www.blogbus.com/muzik-logs/43235971.html

    Artist.......: Fabolous                                                     ▓█
    Title........: Loso's Way                                      ░          ░ ▐█
    Label........: Desert Storm Records                                         ░█
    Release.Type.: Album                                                     ░ ░ █
    Genre........: RAP                                                           █
    Source.......: CDDA                                                          ▓       ▒
    Quality......: 320 kbps
    Rip.Date.....: 2009-07-23
    Year.........: 2009                                                          ░
    Tracks.......: 16
    Playtime.....: 1h 07min Total
    Size.........: 155 MB

    Tracklist
    ------------

    01.  The Way "Intro"                                              4:09
    02.  My Time (featuring Jeremih)                                  4:00
    03.  Imma Do It (featuring Kobe)                                  3:59
    04.  Feel Like I'm Back                                           4:28
    05.  Everything, Everyday, Everywhere (featuring Keri Hilson)     4:07
    06.  Throw It In The Bag (featuring The-Dream)                    3:51
    07.  Money Goes, Honey Stay (When The Money Goes Remix)           3:45
         (featuring Jay Z)
    08.  Salute (featuring Lil' Wayne)                                4:27
    09.  There He Go (featuring Paul Cain, Red Cafe, And Freck        4:31
         Billionaire)
    10.  The Fabolous Life (featuring Ryan Leslie)                    4:07
    11.  Makin' Love (featuring Ne-Yo)                                4:07
    12.  Last Time (featuring Trey Songz)                             4:10
    13.  Pachanga                                                     4:14
    14.  Lullaby                                                      4:19
    15.  Stay (featuring Marsha Ambrosius)                            3:41
    16.  I Miss My Love                                               5:49

    http://www.rayfile.com/files/1aa11135-7d09-11de-8d5e-0014221b798a/

    分享到:

    评论

  • .Bashy-Catch_Me_If_You_Can

    Tee辛苦下.请问能否重新给个下载啊.

    我挂了一星期只有1.04

    感谢了..或则发给我的Qq邮箱.284868928@qq.com
    回复D1k说:
    用这个文件名谷歌一下...Bashy-Catch_Me_If_You_Can-(Retail)-2009-H3X
    2009-08-09 01:03:25
  • 请问下50大哥 你那页面的歌曲啊——屎是什么歌 给个下载可以吗?大家都南京人呀
    回复离远点1说:
    Julius Francis Ft. K. Sparks - Round 2
    2009-08-05 08:40:10
  • 50 真是善解人意啊!!!!
  • Exact Audio Copy V0.99 prebeta 4 from 23. January 2008

    EAC extraction logfile from 29. July 2009, 12:14

    Fabolous / Loso's Way

    Used drive : HL-DT-STDVDRAM GSA-U20N Adapter: 3 ID: 0

    Read mode : Secure
    Utilize accurate stream : Yes
    Defeat audio cache : Yes
    Make use of C2 pointers : No

    Read offset correction : 667
    Overread into Lead-In and Lead-Out : No
    Fill up missing offset samples with silence : Yes
    Delete leading and trailing silent blocks : No
    Null samples used in CRC calculations : Yes
    Used interface : Native Win32 interface for Win NT & 2000
    Gap handling : Appended to previous track

    Used output format : User Defined Encoder
    Selected bitrate : 128 kBit/s
    Quality : High
    Add ID3 tag : No
    Command line compressor : C:\Program Files (x86)\Exact Audio Copy\Flac\flac.exe
    Additional command line options : -V -8 -T "artist=%a" -T "title=%t" -T "album=%g" -T "date=%y" -T "tracknumber=%n" -T "genre=%m" %s


    TOC of the extracted CD

    Track | Start | Length | Start sector | End sector
    ---------------------------------------------------------
    1 | 0:00.00 | 4:09.47 | 0 | 18721
    2 | 4:09.47 | 4:00.04 | 18722 | 36725
    3 | 8:09.51 | 3:59.44 | 36726 | 54694
    4 | 12:09.20 | 4:28.67 | 54695 | 74861
    5 | 16:38.12 | 4:07.52 | 74862 | 93438
    6 | 20:45.64 | 3:51.43 | 93439 | 110806
    7 | 24:37.32 | 3:44.73 | 110807 | 127679
    8 | 28:22.30 | 4:27.20 | 127680 | 147724
    9 | 32:49.50 | 4:31.07 | 147725 | 168056
    10 | 37:20.57 | 4:07.62 | 168057 | 186643
    11 | 41:28.44 | 4:07.29 | 186644 | 205197
    12 | 45:35.73 | 4:10.46 | 205198 | 223993
    13 | 49:46.44 | 4:14.46 | 223994 | 243089
    14 | 54:01.15 | 4:19.42 | 243090 | 262556
    15 | 58:20.57 | 3:41.46 | 262557 | 279177
    16 | 62:02.28 | 5:49.63 | 279178 | 305415


    Track 1

    Filename C:\Fabolous - Loso's Way\01 - The Way 'Intro'.wav

    Pre-gap length 0:00:02.00

    Peak level 98.8 %
    Track quality 100.0 %
    Test CRC 03C03240
    Copy CRC 03C03240
    Track not present in AccurateRip database
    Copy OK

    Track 2

    Filename C:\Fabolous - Loso's Way\02 - My Time (Feat. Jeremih).wav

    Peak level 97.7 %
    Track quality 99.9 %
    Test CRC 69354228
    Copy CRC 69354228
    Track not present in AccurateRip database
    Copy OK

    Track 3

    Filename C:\Fabolous - Loso's Way\03 - Imma Do It (Feat. Kobe).wav

    Peak level 98.9 %
    Track quality 100.0 %
    Test CRC C4C01BC4
    Copy CRC C4C01BC4
    Track not present in AccurateRip database
    Copy OK

    Track 4

    Filename C:\Fabolous - Loso's Way\04 - Feel Like I'm Back.wav

    Peak level 98.9 %
    Track quality 100.0 %
    Test CRC 19E4D880
    Copy CRC 19E4D880
    Track not present in AccurateRip database
    Copy OK

    Track 5

    Filename C:\Fabolous - Loso's Way\05 - Everything, Everyday, Everywhere (Feat. Keri Hilson).wav

    Peak level 98.9 %
    Track quality 99.9 %
    Test CRC DCAAF1F8
    Copy CRC DCAAF1F8
    Track not present in AccurateRip database
    Copy OK

    Track 6

    Filename C:\Fabolous - Loso's Way\06 - Throw It In The Bag (Feat. The-Dream).wav

    Peak level 98.9 %
    Track quality 100.0 %
    Test CRC FA261BF8
    Copy CRC FA261BF8
    Track not present in AccurateRip database
    Copy OK

    Track 7

    Filename C:\Fabolous - Loso's Way\07 - Money Goes, Honey Stay (When The Money Goes Remix) (Feat. Jay Z).wav

    Peak level 97.7 %
    Track quality 100.0 %
    Test CRC E776B764
    Copy CRC E776B764
    Track not present in AccurateRip database
    Copy OK

    Track 8

    Filename C:\Fabolous - Loso's Way\08 - Salute (Feat. Lil Wayne).wav

    Peak level 98.9 %
    Track quality 100.0 %
    Test CRC E479E930
    Copy CRC E479E930
    Track not present in AccurateRip database
    Copy OK

    Track 9

    Filename C:\Fabolous - Loso's Way\09 - There He Go (Feat. Paul Cain, Red Cafe & Freck Billionaire).wav

    Peak level 98.8 %
    Track quality 100.0 %
    Test CRC 70541589
    Copy CRC 70541589
    Track not present in AccurateRip database
    Copy OK

    Track 10

    Filename C:\Fabolous - Loso's Way\10 - The Fabolous Life (Feat. Ryan Leslie).wav

    Peak level 98.9 %
    Track quality 100.0 %
    Test CRC ECB5F6A7
    Copy CRC ECB5F6A7
    Track not present in AccurateRip database
    Copy OK

    Track 11

    Filename C:\Fabolous - Loso's Way\11 - Makin Love (Feat. Ne-Yo).wav

    Peak level 81.3 %
    Track quality 99.9 %
    Test CRC E1299C79
    Copy CRC E1299C79
    Track not present in AccurateRip database
    Copy OK

    Track 12

    Filename C:\Fabolous - Loso's Way\12 - Last Time (Feat. Trey Songz).wav

    Peak level 83.0 %
    Track quality 100.0 %
    Test CRC ACB1D282
    Copy CRC ACB1D282
    Track not present in AccurateRip database
    Copy OK

    Track 13

    Filename C:\Fabolous - Loso's Way\13 - Pachanga.wav

    Peak level 97.7 %
    Track quality 100.0 %
    Test CRC 82AA3898
    Copy CRC 82AA3898
    Track not present in AccurateRip database
    Copy OK

    Track 14

    Filename C:\Fabolous - Loso's Way\14 - Lullaby.wav

    Peak level 98.9 %
    Track quality 100.0 %
    Test CRC EB14A103
    Copy CRC EB14A103
    Track not present in AccurateRip database
    Copy OK

    Track 15

    Filename C:\Fabolous - Loso's Way\15 - Stay (Feat. Marsha Ambrosius).wav

    Peak level 98.9 %
    Track quality 100.0 %
    Test CRC 84484413
    Copy CRC 84484413
    Track not present in AccurateRip database
    Copy OK

    Track 16

    Filename C:\Fabolous - Loso's Way\16 - I Miss My Love.wav

    Peak level 98.9 %
    Track quality 100.0 %
    Test CRC 2C07572E
    Copy CRC 2C07572E
    Track not present in AccurateRip database
    Copy OK


    None of the tracks are present in the AccurateRip database

    No errors occurred

    End of status report