评论

  • thax.
  • 谢谢,超喜欢她
  • X Lossless Decoder version 20090930 (110.0)

    XLD extraction logfile from 2009-11-06 17:42:02 -0500

    Norah Jones / The Fall

    Used drive : MATSHITA DVD-R UJ-857 (revision HAEA)

    Use cdparanoia mode : YES (CDParanoia III 10.2 engine)
    Disable audio cache : OK for the drive with cache less than 2750KB
    Make use of C2 pointers : NO
    Read offset correction : 102
    Max retry count : 100

    TOC of the extracted CD
    Track | Start | Length | Start sector | End sector
    ---------------------------------------------------------
    1 | 00:00:00 | 02:40:68 | 0 | 12067
    2 | 02:40:68 | 03:52:15 | 12068 | 29482
    3 | 06:33:08 | 03:52:37 | 29483 | 46919
    4 | 10:25:45 | 03:38:09 | 46920 | 63278
    5 | 14:03:54 | 03:30:04 | 63279 | 79032
    6 | 17:33:58 | 03:31:04 | 79033 | 94861
    7 | 21:04:62 | 03:11:35 | 94862 | 109221
    8 | 24:16:22 | 02:45:32 | 109222 | 121628
    9 | 27:01:54 | 04:09:70 | 121629 | 140373
    10 | 31:11:49 | 05:15:64 | 140374 | 164062
    11 | 36:27:38 | 03:05:51 | 164063 | 177988
    12 | 39:33:14 | 03:25:70 | 177989 | 193433
    13 | 42:59:09 | 02:56:74 | 193434 | 206707

    All Tracks
    Album gain : -6.53 dB
    Peak : 0.998840

    Track 01
    Filename : /Users/Conrad/Music/Temporary Torrent Music/Norah Jones - The Fall (V0)/01 Chasing Pirates.mp3

    Track gain : -7.01 dB
    Peak : 0.968048
    CRC32 hash (test run) : E69CB0F9
    CRC32 hash : E69CB0F9
    CRC32 hash (skip zero) : 80B95377
    AccurateRip signature : 861EA1C6
    ->Track not present in AccurateRip database.
    Statistics
    Read error : 0
    Skipped (treated as error) : 0
    Edge jitter error (maybe fixed) : 0
    Atom jitter error (maybe fixed) : 0
    Drift error (maybe fixed) : 0
    Dropped bytes error (maybe fixed) : 0
    Duplicated bytes error (maybe fixed) : 0
    Inconsistency in error sectors : 0

    Track 02
    Filename : /Users/Conrad/Music/Temporary Torrent Music/Norah Jones - The Fall (V0)/02 Even Though.mp3

    Track gain : -6.14 dB
    Peak : 0.960693
    CRC32 hash (test run) : 3CF44FEA
    CRC32 hash : 3CF44FEA
    CRC32 hash (skip zero) : C83934D2
    AccurateRip signature : DB76C7C4
    ->Track not present in AccurateRip database.
    Statistics
    Read error : 0
    Skipped (treated as error) : 0
    Edge jitter error (maybe fixed) : 0
    Atom jitter error (maybe fixed) : 0
    Drift error (maybe fixed) : 0
    Dropped bytes error (maybe fixed) : 0
    Duplicated bytes error (maybe fixed) : 0
    Inconsistency in error sectors : 0

    Track 03
    Filename : /Users/Conrad/Music/Temporary Torrent Music/Norah Jones - The Fall (V0)/03 Light as a Feather.mp3

    Track gain : -6.41 dB
    Peak : 0.956299
    CRC32 hash (test run) : 68E688F0
    CRC32 hash : 68E688F0
    CRC32 hash (skip zero) : 99388FA7
    AccurateRip signature : 1BC1E4BB
    ->Track not present in AccurateRip database.
    Statistics
    Read error : 0
    Skipped (treated as error) : 0
    Edge jitter error (maybe fixed) : 0
    Atom jitter error (maybe fixed) : 0
    Drift error (maybe fixed) : 0
    Dropped bytes error (maybe fixed) : 0
    Duplicated bytes error (maybe fixed) : 0
    Inconsistency in error sectors : 0

    Track 04
    Filename : /Users/Conrad/Music/Temporary Torrent Music/Norah Jones - The Fall (V0)/04 Young Blood.mp3

    Track gain : -5.33 dB
    Peak : 0.971466
    CRC32 hash (test run) : E65851B1
    CRC32 hash : E65851B1
    CRC32 hash (skip zero) : B12436F1
    AccurateRip signature : 075436E0
    ->Track not present in AccurateRip database.
    Statistics
    Read error : 0
    Skipped (treated as error) : 0
    Edge jitter error (maybe fixed) : 0
    Atom jitter error (maybe fixed) : 0
    Drift error (maybe fixed) : 0
    Dropped bytes error (maybe fixed) : 0
    Duplicated bytes error (maybe fixed) : 0
    Inconsistency in error sectors : 0

    Track 05
    Filename : /Users/Conrad/Music/Temporary Torrent Music/Norah Jones - The Fall (V0)/05 I Wouldn't Need You.mp3

    Track gain : -7.27 dB
    Peak : 0.998840
    CRC32 hash (test run) : A30E6F7F
    CRC32 hash : A30E6F7F
    CRC32 hash (skip zero) : DFA3DB74
    AccurateRip signature : 228D1E92
    ->Track not present in AccurateRip database.
    Statistics
    Read error : 0
    Skipped (treated as error) : 0
    Edge jitter error (maybe fixed) : 0
    Atom jitter error (maybe fixed) : 0
    Drift error (maybe fixed) : 0
    Dropped bytes error (maybe fixed) : 0
    Duplicated bytes error (maybe fixed) : 0
    Inconsistency in error sectors : 0

    Track 06
    Filename : /Users/Conrad/Music/Temporary Torrent Music/Norah Jones - The Fall (V0)/06 Waiting.mp3

    Track gain : -5.65 dB
    Peak : 0.953949
    CRC32 hash (test run) : A3A278E8
    CRC32 hash : A3A278E8
    CRC32 hash (skip zero) : 7C085FDB
    AccurateRip signature : B4ED810B
    ->Track not present in AccurateRip database.
    Statistics
    Read error : 0
    Skipped (treated as error) : 0
    Edge jitter error (maybe fixed) : 0
    Atom jitter error (maybe fixed) : 0
    Drift error (maybe fixed) : 0
    Dropped bytes error (maybe fixed) : 0
    Duplicated bytes error (maybe fixed) : 0
    Inconsistency in error sectors : 0

    Track 07
    Filename : /Users/Conrad/Music/Temporary Torrent Music/Norah Jones - The Fall (V0)/07 It's Gonna Be.mp3

    Track gain : -7.16 dB
    Peak : 0.971191
    CRC32 hash (test run) : CF7A9571
    CRC32 hash : CF7A9571
    CRC32 hash (skip zero) : 6DC0AB86
    AccurateRip signature : 989DEC68
    ->Track not present in AccurateRip database.
    Statistics
    Read error : 0
    Skipped (treated as error) : 0
    Edge jitter error (maybe fixed) : 0
    Atom jitter error (maybe fixed) : 0
    Drift error (maybe fixed) : 0
    Dropped bytes error (maybe fixed) : 0
    Duplicated bytes error (maybe fixed) : 0
    Inconsistency in error sectors : 0

    Track 08
    Filename : /Users/Conrad/Music/Temporary Torrent Music/Norah Jones - The Fall (V0)/08 You've Ruined Me.mp3

    Track gain : -7.75 dB
    Peak : 0.984161
    CRC32 hash (test run) : 130235C1
    CRC32 hash : 130235C1
    CRC32 hash (skip zero) : 4B138CAB
    AccurateRip signature : C6B2F625
    ->Track not present in AccurateRip database.
    Statistics
    Read error : 0
    Skipped (treated as error) : 0
    Edge jitter error (maybe fixed) : 0
    Atom jitter error (maybe fixed) : 0
    Drift error (maybe fixed) : 0
    Dropped bytes error (maybe fixed) : 0
    Duplicated bytes error (maybe fixed) : 0
    Inconsistency in error sectors : 0

    Track 09
    Filename : /Users/Conrad/Music/Temporary Torrent Music/Norah Jones - The Fall (V0)/09 Back to Manhatten.mp3

    Track gain : -4.68 dB
    Peak : 0.953949
    CRC32 hash (test run) : 697259C9
    CRC32 hash : 697259C9
    CRC32 hash (skip zero) : 2BB377AC
    AccurateRip signature : DE4AB373
    ->Track not present in AccurateRip database.
    Statistics
    Read error : 0
    Skipped (treated as error) : 0
    Edge jitter error (maybe fixed) : 0
    Atom jitter error (maybe fixed) : 0
    Drift error (maybe fixed) : 0
    Dropped bytes error (maybe fixed) : 0
    Duplicated bytes error (maybe fixed) : 0
    Inconsistency in error sectors : 0

    Track 10
    Filename : /Users/Conrad/Music/Temporary Torrent Music/Norah Jones - The Fall (V0)/10 Stuck.mp3

    Track gain : -6.66 dB
    Peak : 0.965942
    CRC32 hash (test run) : 9B50CA4C
    CRC32 hash : 9B50CA4C
    CRC32 hash (skip zero) : 557C7F16
    AccurateRip signature : 6F88E22C
    ->Track not present in AccurateRip database.
    Statistics
    Read error : 0
    Skipped (treated as error) : 0
    Edge jitter error (maybe fixed) : 0
    Atom jitter error (maybe fixed) : 0
    Drift error (maybe fixed) : 0
    Dropped bytes error (maybe fixed) : 0
    Duplicated bytes error (maybe fixed) : 0
    Inconsistency in error sectors : 0

    Track 11
    Filename : /Users/Conrad/Music/Temporary Torrent Music/Norah Jones - The Fall (V0)/11 December.mp3

    Track gain : -6.03 dB
    Peak : 0.966431
    CRC32 hash (test run) : ED8E44E2
    CRC32 hash : ED8E44E2
    CRC32 hash (skip zero) : 72E3CC3B
    AccurateRip signature : 15524D02
    ->Track not present in AccurateRip database.
    Statistics
    Read error : 0
    Skipped (treated as error) : 0
    Edge jitter error (maybe fixed) : 0
    Atom jitter error (maybe fixed) : 0
    Drift error (maybe fixed) : 0
    Dropped bytes error (maybe fixed) : 0
    Duplicated bytes error (maybe fixed) : 0
    Inconsistency in error sectors : 0

    Track 12
    Filename : /Users/Conrad/Music/Temporary Torrent Music/Norah Jones - The Fall (V0)/12 Tell Yer Mama.mp3

    Track gain : -6.72 dB
    Peak : 0.958435
    CRC32 hash (test run) : 273434E7
    CRC32 hash : 273434E7
    CRC32 hash (skip zero) : 63D60D2D
    AccurateRip signature : F28FF29F
    ->Track not present in AccurateRip database.
    Statistics
    Read error : 0
    Skipped (treated as error) : 0
    Edge jitter error (maybe fixed) : 0
    Atom jitter error (maybe fixed) : 0
    Drift error (maybe fixed) : 0
    Dropped bytes error (maybe fixed) : 0
    Duplicated bytes error (maybe fixed) : 0
    Inconsistency in error sectors : 0

    Track 13
    Filename : /Users/Conrad/Music/Temporary Torrent Music/Norah Jones - The Fall (V0)/13 Man of the Hour.mp3

    Track gain : -5.63 dB
    Peak : 0.953949
    CRC32 hash (test run) : E7EC976A
    CRC32 hash : E7EC976A
    CRC32 hash (skip zero) : 1AD81487
    AccurateRip signature : 222E5130
    ->Track not present in AccurateRip database.
    Statistics
    Read error : 0
    Skipped (treated as error) : 0
    Edge jitter error (maybe fixed) : 0
    Atom jitter error (maybe fixed) : 0
    Drift error (maybe fixed) : 0
    Dropped bytes error (maybe fixed) : 0
    Duplicated bytes error (maybe fixed) : 0
    Inconsistency in error sectors : 0

    No errors occurred

    End of status report