• Alicia Keys - The Element Of Freedom(Deluxe Edition) 2009[CDR/320K] - [Muzik]

    2009-12-09

    版权声明:转载时请以超链接形式标明文章原始出处和作者信息及本声明
    http://www.blogbus.com/muzik-logs/53229054.html


    Release Date.: 2009-12-08
    Store Date...: 2009-12-15
    Source.......: CD
    Style........: R&B
    Record Label.: J-Records
    Encoder......: Lame 3.93
    Quality......: 320kbps


    1. The Element Of Freedom (Intro)                      0:12
    2. Love Is Blind                                      3:49
    3. Doesnt Mean Anything                              4:32
    4. Try Sleeping With A Broken Heart                    4:09
    5. Wait Til You See My Smile                          4:01
    6. Thats How Strong My Love Is                        4:04
    7. Un-Thinkable (Im Ready) (featuring Drake)          4:09
    8. Love Is My Disease                                  4:01
    9. Like The Sea                                        4:13
    10.Put It In A Love Song (featuring Beyonce)          3:15
    11.This Bed                                            3:45
    12.Distance And Time                                  4:27
    13.How It Feels To Fly                                4:42
    14.Empire State Of Mind (Part II) Broken Down          3:36
    15.Through It All                                      4:28
    16.Pray For Forgiveness                                4:44

    Exact Audio Copy V0.99 prebeta 5 from 4. May 2009

    EAC extraction logfile from 8. December 2009, 3:31
    Alicia Keys / The Element Of Freedom (Deluxe)
    Used drive  : ASUS    DRW-1814BL   Adapter: 3  ID: 1
    Read mode               : Secure
    Utilize accurate stream : Yes
    Defeat audio cache      : Yes
    Make use of C2 pointers : No

    Read offset correction                      : 6
    Overread into Lead-In and Lead-Out          : No
    Fill up missing offset samples with silence : Yes
    Delete leading and trailing silent blocks   : No
    Null samples used in CRC calculations       : Yes
    Used interface                              : Native Win32 interface for Win NT & 2000
    Gap handling                                : Appended to previous track

    Used output format              : User Defined Encoder
    Selected bitrate                : 1024 kBit/s
    Quality                         : High
    Add ID3 tag                     : No
    Command line compressor         : C:\Program Files\Exact Audio Copy\FLAC\FLAC.EXE
    Additional command line options : -V -8 -T "ARTIST=%a" -T "TITLE=%t" -T "ALBUM=%g" -T "DATE=%y" -T "TRACKNUMBER=%n" -T "GENRE=%m" -T "COMMENT=%e" %s -o %d


    TOC of the extracted CD
         Track |   Start  |  Length  | Start sector | End sector
        ---------------------------------------------------------
            1  |  0:00.00 |  0:12.56 |         0    |      955   
            2  |  0:12.56 |  3:49.54 |       956    |    18184   
            3  |  4:02.35 |  4:32.45 |     18185    |    38629   
            4  |  8:35.05 |  4:09.02 |     38630    |    57306   
            5  | 12:44.07 |  4:01.24 |     57307    |    75405   
            6  | 16:45.31 |  4:04.53 |     75406    |    93758   
            7  | 20:50.09 |  4:09.17 |     93759    |   112450   
            8  | 24:59.26 |  4:01.61 |    112451    |   130586   
            9  | 29:01.12 |  4:13.10 |    130587    |   149571   
           10  | 33:14.22 |  3:15.44 |    149572    |   164240   
           11  | 36:29.66 |  3:45.23 |    164241    |   181138   
           12  | 40:15.14 |  4:27.24 |    181139    |   201187   
           13  | 44:42.38 |  4:42.43 |    201188    |   222380   
           14  | 49:25.06 |  3:38.72 |    222381    |   238802   
           15  | 53:04.03 |  4:28.56 |    238803    |   258958   
           16  | 57:32.59 |  4:44.38 |    258959    |   280296   


    Track  1
         Filename C:\Easy\My --FLAC-- Stuff\Alicia Keys - The Element Of Freedom (Deluxe) 2009 --FLAC-- [Cov+CD]\01. Element Of Freedom (Intro) - Alicia Keys.wav
         Pre-gap length  0:00:02.00
         Peak level 16.3 %
         Track quality 100.0 %
         Test CRC AB4AA933
         Copy CRC AB4AA933
         Track not present in AccurateRip database
         Copy OK

    Track  2
         Filename C:\Easy\My --FLAC-- Stuff\Alicia Keys - The Element Of Freedom (Deluxe) 2009 --FLAC-- [Cov+CD]\02. Love Is Blind - Alicia Keys.wav
         Peak level 98.8 %
         Track quality 100.0 %
         Test CRC E99A10AB
         Copy CRC E99A10AB
         Track not present in AccurateRip database
         Copy OK

    Track  3
         Filename C:\Easy\My --FLAC-- Stuff\Alicia Keys - The Element Of Freedom (Deluxe) 2009 --FLAC-- [Cov+CD]\03. Doesn't Mean Anything - Alicia Keys.wav
         Peak level 98.9 %
         Track quality 99.9 %
         Test CRC 9D179CF4
         Copy CRC 9D179CF4
         Track not present in AccurateRip database
         Copy OK

    Track  4
         Filename C:\Easy\My --FLAC-- Stuff\Alicia Keys - The Element Of Freedom (Deluxe) 2009 --FLAC-- [Cov+CD]\04. Try Sleeping With A Broken Heart - Alicia Keys.wav
         Peak level 98.8 %
         Track quality 99.9 %
         Test CRC D89BBEEB
         Copy CRC D89BBEEB
         Track not present in AccurateRip database
         Copy OK

    Track  5
         Filename C:\Easy\My --FLAC-- Stuff\Alicia Keys - The Element Of Freedom (Deluxe) 2009 --FLAC-- [Cov+CD]\05. Wait To You See My Smile - Alicia Keys.wav
         Peak level 98.8 %
         Track quality 100.0 %
         Test CRC 164A32BA
         Copy CRC 164A32BA
         Track not present in AccurateRip database
         Copy OK

    Track  6
         Filename C:\Easy\My --FLAC-- Stuff\Alicia Keys - The Element Of Freedom (Deluxe) 2009 --FLAC-- [Cov+CD]\06. That's How Strong My Love Is - Alicia Keys.wav
         Pre-gap length  0:00:01.10
         Peak level 98.8 %
         Track quality 99.9 %
         Test CRC 0066CDC1
         Copy CRC 0066CDC1
         Track not present in AccurateRip database
         Copy OK

    Track  7
         Filename C:\Easy\My --FLAC-- Stuff\Alicia Keys - The Element Of Freedom (Deluxe) 2009 --FLAC-- [Cov+CD]\07. Un-Thinkable (I'm Ready) - Alicia Keys.wav
         Peak level 98.8 %
         Track quality 100.0 %
         Test CRC 224768B8
         Copy CRC 224768B8
         Track not present in AccurateRip database
         Copy OK

    Track  8
         Filename C:\Easy\My --FLAC-- Stuff\Alicia Keys - The Element Of Freedom (Deluxe) 2009 --FLAC-- [Cov+CD]\08. Love Is My Disease - Alicia Keys.wav
         Peak level 98.8 %
         Track quality 100.0 %
         Test CRC BC83C7ED
         Copy CRC BC83C7ED
         Track not present in AccurateRip database
         Copy OK

    Track  9
         Filename C:\Easy\My --FLAC-- Stuff\Alicia Keys - The Element Of Freedom (Deluxe) 2009 --FLAC-- [Cov+CD]\09. Like The Sea - Alicia Keys.wav
         Peak level 98.8 %
         Track quality 100.0 %
         Test CRC C4FFC197
         Copy CRC C4FFC197
         Track not present in AccurateRip database
         Copy OK

    Track 10
         Filename C:\Easy\My --FLAC-- Stuff\Alicia Keys - The Element Of Freedom (Deluxe) 2009 --FLAC-- [Cov+CD]\10. Put It In A Love Song ft. Beyonce - Alicia Keys.wav
         Peak level 98.8 %
         Track quality 99.9 %
         Test CRC BCD6F8EB
         Copy CRC BCD6F8EB
         Track not present in AccurateRip database
         Copy OK

    Track 11
         Filename C:\Easy\My --FLAC-- Stuff\Alicia Keys - The Element Of Freedom (Deluxe) 2009 --FLAC-- [Cov+CD]\11. This Bed - Alicia Keys.wav
         Peak level 76.6 %
         Track quality 100.0 %
         Test CRC 44D21662
         Copy CRC 44D21662
         Track not present in AccurateRip database
         Copy OK

    Track 12
         Filename C:\Easy\My --FLAC-- Stuff\Alicia Keys - The Element Of Freedom (Deluxe) 2009 --FLAC-- [Cov+CD]\12. Diatance And Time - Alicia Keys.wav
         Peak level 100.0 %
         Track quality 99.9 %
         Test CRC BFBC2DF6
         Copy CRC BFBC2DF6
         Track not present in AccurateRip database
         Copy OK

    Track 13
         Filename C:\Easy\My --FLAC-- Stuff\Alicia Keys - The Element Of Freedom (Deluxe) 2009 --FLAC-- [Cov+CD]\13. How It Feels To Fly - Alicia Keys.wav
         Peak level 98.8 %
         Track quality 99.9 %
         Test CRC 5A1544C6
         Copy CRC 5A1544C6
         Track not present in AccurateRip database
         Copy OK

    Track 14
         Filename C:\Easy\My --FLAC-- Stuff\Alicia Keys - The Element Of Freedom (Deluxe) 2009 --FLAC-- [Cov+CD]\14. Empire State Of Mind (Part II) Broken Down - Alicia Keys.wav
         Peak level 98.8 %
         Track quality 100.0 %
         Test CRC 874E41C3
         Copy CRC 874E41C3
         Track not present in AccurateRip database
         Copy OK

    Track 15
         Filename C:\Easy\My --FLAC-- Stuff\Alicia Keys - The Element Of Freedom (Deluxe) 2009 --FLAC-- [Cov+CD]\15. Through It All - Alicia Keys.wav
         Pre-gap length  0:00:02.46
         Peak level 98.8 %
         Track quality 100.0 %
         Test CRC 619AEFBE
         Copy CRC 619AEFBE
         Track not present in AccurateRip database
         Copy OK

    Track 16
         Filename C:\Easy\My --FLAC-- Stuff\Alicia Keys - The Element Of Freedom (Deluxe) 2009 --FLAC-- [Cov+CD]\16. Pray For Forgiveness - Alicia Keys.wav
         Pre-gap length  0:00:00.94
         Peak level 98.8 %
         Track quality 100.0 %
         Test CRC 99E1A8DE
         Copy CRC 99E1A8DE
         Track not present in AccurateRip database
         Copy OK


    None of the tracks are present in the AccurateRip database
    No errors occurred

    分享到:

    评论

  • 感谢。。。
    不过没下下来。。。。