• Tynisha Keli - Love Hurts(feat.COMA-CHI) [自压MV][更新!!!] - [Video]

    2010-09-04

    版权声明:转载时请以超链接形式标明文章原始出处和作者信息及本声明
    http://www.blogbus.com/muzik-logs/74200583.html

      Video #1
          ID : 1
          Format : AVC
          Format/Info : Advanced Video Codec
          Format profile :
    Main@L3.1
          Format settings, CABAC : Yes
          Format settings, ReFrames : 3 frames
          Muxing mode : Container profile=Unknown@3.1
          Codec ID : V_MPEG4/ISO/AVC
          Duration : 3mn 51s
          Bit rate : 1 235 Kbps
          Width : 854 pixels
          Height : 470 pixels
          Display aspect ratio : 16:9
          Frame rate mode : Variable
          Frame rate : 30.000 fps
          Resolution : 8 bits
          Colorimetry : 4:2:0
          Scan type : Progressive
          Bits/(Pixel*Frame) : 0.103
          Stream size : 34.1 MiB (89%)
          Title : Eno
       Audio #2
          ID : 2
          Format : MPEG Audio
          Format version : Version 1
          Format profile : Layer 3
          Mode : Joint stereo
          Format_Settings_ModeExtension : MS Stereo
          Codec ID : A_MPEG/L3
          Codec ID/Hint : MP3
          Duration : 3mn 51s
          Bit rate mode : Constant
          Bit rate : 128 Kbps
          Channel(s) : 2 channels
          Sampling rate : 44.1 KHz
          Video delay : 11ms
          Stream size : 3.54 MiB (9%)
          Title : Eno
          Writing library : LAME3.98.2

    更新了~~
    直接提取U2B高清视频源无二次转码直接封装..

    切掉了开头两秒左右的黑屏..

    切掉了最后日本华纳的logo..

    http://bbs.maxrnb.cn/thread-81131-1-1.html

    分享到: