•   Video #1
          ID : 1
          Format : AVC
          Format/Info : Advanced Video Codec
          Format profile :
    Main@L3.1
          Format settings, CABAC : Yes
          Format settings, ReFrames : 3 frames
          Muxing mode : Container profile=Unknown@3.1
          Codec ID : V_MPEG4/ISO/AVC
          Duration : 3mn 51s
          Bit rate : 1 235 Kbps
          Width : 854 pixels
          Height : 470 pixels
          Display aspect ratio : 16:9
          Frame rate mode : Variable
          Frame rate : 30.000 fps
          Resolution : 8 bits
          Colorimetry : 4:2:0
          Scan type : Progressive
          Bits/(Pixel*Frame) : 0.103
          Stream size : 34.1 MiB (89%)
          Title : Eno
       Audio #2
          ID : 2
          Format : MPEG Audio
          Format version : Version 1
          Format profile : Layer 3
          Mode : Joint stereo
          Format_Settings_ModeExtension : MS Stereo
          Codec ID : A_MPEG/L3
          Codec ID/Hint : MP3
          Duration : 3mn 51s
          Bit rate mode : Constant
          Bit rate : 128 Kbps
          Channel(s) : 2 channels
          Sampling rate : 44.1 KHz
          Video delay : 11ms
          Stream size : 3.54 MiB (9%)
          Title : Eno
          Writing library : LAME3.98.2

    更新了~~
    直接提取U2B高清视频源无二次转码直接封装..

    切掉了开头两秒左右的黑屏..

    切掉了最后日本华纳的logo..

    http://bbs.maxrnb.cn/thread-81131-1-1.html

  • Artist.......: Tynisha Keli   
    Title........: The 5th Element                 
    Label........: Entertainment LLC.     
    Release.Type.: Album        
    Genre........: Pop         
    Source.......: CDDA           
    Encoder......: iTunes 9.21   
    Quality......: 320K
    Year.........: 2010           
    Tracks.......: 13
    Playtime.....: 0h 45min Total

    1. Next Time
    2. Love Hurts (feat.COMA-CHI)
    3. The Right Way (feat.JAY 'ED)
    4. Half A Man (feat. Jay Beretta)
    5. Live Without U
    06. Heart Break
    07. How To Love
    8. Calling My Name
    9. Miss My Love
    10. Dear Love
    11. Right Here Waiting
    12. Next Time (Remix) (Bonus Track For Japan)
    13. Hearts Love (Original Version) (Bonus Track For Japan)

    http://bbs.maxrnb.cn/thread-80430-1-1.html